全力打造全球最大的哆啦A梦FANS群体--哆啦俱乐部--为每一位喜爱哆啦A梦的朋友营造的大家庭

 找回密码
 哆啦俱乐部会员注册

QQ登录

只需一步,快速开始

搜索
热搜: 活动 交友 discuz
查看: 2369|回复: 49

【哆啦A梦剧场版2017:大雄的冰天雪地大冒险】【1080P BDRip/陆台双语/中字/3.88GB】

[复制链接]
 楼主| 发表于 2018-2-10 18:10:05 | 显示全部楼层 |阅读模式
本帖最后由 發葛 于 2018-2-10 19:13 编辑

p2512105861.jpg
◎译  名 哆啦A梦:大雄的南极冰天雪地大冒险/哆啦A梦:大雄的南极冰冰凉大冒险/哆啦A梦:大雄的南极冰寒大冒险
◎片  名 ドラえもん のび太の南極カチコチ大冒険
◎年  代 2017
◎产  地 日本
◎类  别 动画/冒险
◎语  言 日语
◎上映日期 2017-03-04(日本)/2017-05-30(中国大陆)
◎IMDb评分  6.7/10 from 217 users
◎IMDb链接  http://www.imdb.com/title/tt5912470/
◎豆瓣评分 6.5/10 from 15,284 users
◎豆瓣链接 https://movie.douban.com/subject/26839466/
◎片  长 101分钟
◎导  演 高桥敦史 Atsushi Takahashi
◎主  演 水田山葵 Wasabi Mizuta
      大原惠美 Megumi Oohara
      嘉数由美 Yumi Kakazu
      木村昴 Subaru Kimura
      关智一 Tomokazu Seki
      千秋 Chiaki
      钉宫理惠 Rie Kugimiya
      金井美香 Mika Kanai
      三石琴乃 Kotono Mitsuishi

◎简  介

  为了躲避夏日的酷暑,哆啦A梦(水天葵 配音)带着大雄(大原惠美 配音)、静香(嘉薮由美 配音)、胖虎(木村昴 配音)和小夫(关智一 配音)来到了漂浮在南太平洋中的一座冰山上。他们利用道具“冰雕工艺组”打造了惊险刺激而又妙趣横生的游乐园,小伙伴们乐而忘返。可就在此时,乐园突然垮塌,大雄则偶然从冰层中捡到了一枚金环。根据调查发现,金环居然是十万年前的产物。为了寻找它的主人,哆啦A梦一行穿越时空。在古老的南极,他们见到了一座神秘都市,并发现了奇怪的生物。
  而他们此次的冒险,将与自身以及地球的命运息息相关……

  1. General
  2. Unique ID : 181815277666058404491349008169196285712 (0x88C859485CCD00BF46F259D157F36F10)
  3. Complete name : F:\哆啦A梦:大雄的南极冰天雪地大冒险大冒险 陆台双国配.mkv
  4. Format : Matroska
  5. Format version : Version 4 / Version 2
  6. File size : 3.88 GiB
  7. Duration : 1 h 40 min
  8. Overall bit rate : 5 508 kb/s
  9. Encoded date : UTC 2018-02-08 03:36:07
  10. Writing application : mkvmerge v20.0.0 ('I Am The Sun') 64-bit
  11. Writing library : libebml v1.3.5 + libmatroska v1.4.8


  12. Video
  13. ID : 1
  14. Format : AVC
  15. Format/Info : Advanced Video Codec
  16. Format profile : High@L5
  17. Format settings : CABAC / 6 Ref Frames
  18. Format settings, CABAC : Yes
  19. Format settings, ReFrames : 6 frames
  20. Codec ID : V_MPEG4/ISO/AVC
  21. Duration : 1 h 40 min
  22. Bit rate : 4 863 kb/s
  23. Width : 1 920 pixels
  24. Height : 1 080 pixels
  25. Display aspect ratio : 16:9
  26. Frame rate mode : Constant
  27. Frame rate : 23.976 (24000/1001) FPS
  28. Color space : YUV
  29. Chroma subsampling : 4:2:0
  30. Bit depth : 8 bits
  31. Scan type : Progressive
  32. Bits/(Pixel*Frame) : 0.098
  33. Stream size : 3.43 GiB (88%)
  34. Writing library : x264 core 148 r2762 90a61ec
  35. Encoding settings : cabac=1 / ref=6 / deblock=1:1:1 / analyse=0x3:0x113 / me=hex / subme=7 / psy=1 / psy_rd=0.40:0.00 / mixed_ref=1 / me_range=16 / chroma_me=1 / trellis=1 / 8x8dct=1 / cqm=0 / deadzone=21,11 / fast_pskip=1 / chroma_qp_offset=-2 / threads=12 / lookahead_threads=2 / sliced_threads=0 / nr=0 / decimate=1 / interlaced=0 / bluray_compat=0 / constrained_intra=0 / bframes=5 / b_pyramid=2 / b_adapt=1 / b_bias=0 / direct=1 / weightb=1 / open_gop=0 / weightp=2 / keyint=250 / keyint_min=23 / scenecut=40 / intra_refresh=0 / rc_lookahead=40 / rc=abr / mbtree=1 / bitrate=4863 / ratetol=1.0 / qcomp=0.60 / qpmin=0 / qpmax=69 / qpstep=4 / ip_ratio=1.40 / aq=1:0.60
  36. Default : Yes
  37. Forced : No


  38. Audio #1
  39. ID : 2
  40. Format : AC-3
  41. Format/Info : Audio Coding 3
  42. Codec ID : A_AC3
  43. Duration : 1 h 40 min
  44. Bit rate mode : Constant
  45. Bit rate : 448 kb/s
  46. Channel(s) : 6 channels
  47. Channel positions : Front: L C R, Side: L R, LFE
  48. Sampling rate : 48.0 kHz
  49. Frame rate : 31.250 FPS (1536 SPF)
  50. Bit depth : 16 bits
  51. Compression mode : Lossy
  52. Stream size : 323 MiB (8%)
  53. Title : 台配国语
  54. Language : Chinese
  55. Service kind : Complete Main
  56. Default : Yes
  57. Forced : No


  58. Audio #2
  59. ID : 3
  60. Format : AC-3
  61. Format/Info : Audio Coding 3
  62. Codec ID : A_AC3
  63. Duration : 1 h 40 min
  64. Bit rate mode : Constant
  65. Bit rate : 192 kb/s
  66. Channel(s) : 2 channels
  67. Channel positions : Front: L R
  68. Sampling rate : 48.0 kHz
  69. Frame rate : 31.250 FPS (1536 SPF)
  70. Bit depth : 16 bits
  71. Compression mode : Lossy
  72. Stream size : 139 MiB (3%)
  73. Title : 内地公映国语
  74. Language : Chinese
  75. Service kind : Complete Main
  76. Default : No
  77. Forced : No


  78. Text #1
  79. ID : 4
  80. Format : UTF-8
  81. Codec ID : S_TEXT/UTF8
  82. Codec ID/Info : UTF-8 Plain Text
  83. Duration : 1 h 40 min
  84. Bit rate : 48 b/s
  85. Count of elements : 1598
  86. Stream size : 35.5 KiB (0%)
  87. Title : 对应台配
  88. Language : Chinese
  89. Default : Yes
  90. Forced : No


  91. Text #2
  92. ID : 5
  93. Format : ASS
  94. Codec ID : S_TEXT/ASS
  95. Codec ID/Info : Advanced Sub Station Alpha
  96. Duration : 1 h 40 min
  97. Bit rate : 107 b/s
  98. Count of elements : 1505
  99. Compression mode : Lossless
  100. Stream size : 79.6 KiB (0%)
  101. Title : 对应内地公映国语
  102. Language : Chinese
  103. Default : No
  104. Forced : No
复制代码

游客,如果您要查看本帖隐藏内容请回复

点评

失效了嗎?  发表于 2018-4-11 19:46

评分

1

查看全部评分

发表于 2018-2-11 19:07:30 | 显示全部楼层
感谢楼主的贡献
发表于 2018-2-13 11:38:03 | 显示全部楼层
终于等到了,谢谢,可惜剧情少了以往的味道
匿名  发表于 2018-2-23 13:05:43

终于等到了,谢谢!下载保存
匿名  发表于 2018-2-23 13:07:07

终于等到了,谢谢!
匿名  发表于 2018-2-23 13:07:17

终于等到了,谢谢!
发表于 2018-3-30 06:40:26 | 显示全部楼层
好棒 等好久終於有了
发表于 2018-4-3 19:05:09 | 显示全部楼层
终于有大陆配音加字幕了,谢谢分享~~
发表于 2018-4-9 21:38:21 | 显示全部楼层
真是太感谢了
发表于 2018-4-9 21:38:28 | 显示全部楼层
真是太感谢了

站点统计|Archiver|手机版|小黑屋|哆啦俱乐部 ( 沪ICP备07028690号

GMT+8, 2018-9-25 17:27 , Processed in 0.119230 second(s), 24 queries .

Powered by Discuz! X3.3

© 2001-2017 Comsenz Inc.

快速回复 返回顶部 返回列表